999
DXF file: O:\ORAC_PRODUCTEN\ORAC_LIJN6\C-Type\C213\c213-prod-mm.dxf
999
Pro/ENGINEER 2018500 by Parametric Technology Corporation
  0
SECTION
  2
HEADER
  9
$ACADVER
  1
AC1024
  9
$DWGCODEPAGE
  3
ANSI_1250
  9
$EXTMAX
 10
297.0
 20
210.0
 30
0.0
  9
$EXTMIN
 10
0.0
 20
0.0
 30
0.0
  9
$LIMMIN
 10
0.0
 20
0.0
  9
$LIMMAX
 10
297.0
 20
210.0
  9
$VIEWCTR
 10
148.5
 20
105.0
  9
$VIEWSIZE
 40
210.0
  9
$CLAYER
  8
0
  9
$LTSCALE
 40
16.335
  9
$CELTYPE
  6
BYLAYER
  9
$DIMSCALE
 40
1.0
  9
$DIMASZ
 40
3.5
  9
$DIMEXO
 40
1.0
  9
$DIMDLI
 40
11.286
  9
$DIMEXE
 40
1.5
  9
$DIMCEN
 40
2.673
  9
$DIMLFAC
 40
1.0
  9
$DIMBLK
  1
_FILLED
  9
$DIMALT
 70
0
  9
$DIMALTF
 40
0.0393700787
  9
$DIMTXT
 40
2.5
  9
$DIMTOL
 70
1
  9
$DIMLIM
 70
0
  9
$DIMTFAC
 40
1.0
  9
$DIMTP
 40
0.001
  9
$DIMTM
 40
0.001
  9
$DIMGAP
 40
0.625
  9
$DIMDSEP
 70
44
  9
$AUNITS
 70
0
  9
$PDMODE
 70
3
  9
$PDSIZE
 40
8.0
  9
$HANDSEED
  5
2F4
  9
$TILEMODE
 70
1
  9
$MEASUREMENT
 70
1
  9
$INSUNITS
 70
4
  0
ENDSEC
  0
SECTION
  2
CLASSES
  0
CLASS
  1
ACDBDICTIONARYWDFLT
  2
AcDbDictionaryWithDefault
  3
AutoCAD 2000
 90
0
 91
1
280
0
281
0
  0
CLASS
  1
ACDBPLACEHOLDER
  2
AcDbPlaceHolder
  3
AutoCAD 2000
 90
0
 91
1
280
0
281
0
  0
CLASS
  1
LAYOUT
  2
AcDbLayout
  3
AutoCAD 2000
 90
0
 91
0
280
0
281
0
  0
CLASS
  1
TABLESTYLE
  2
AcDbTableStyle
  3
ObjectDBX Classes
 90
2047
 91
1
280
0
281
0
  0
CLASS
  1
ACAD_TABLE
  2
AcDbTable
  3
ObjectDBX Classes
 90
1025
 91
1
280
0
281
1
  0
ENDSEC
  0
SECTION
  2
TABLES
  0
TABLE
  2
VPORT
  5
8
100
AcDbSymbolTable
 70
2
  0
VPORT
  5
1F4
100
AcDbSymbolTableRecord
100
AcDbViewportTableRecord
  2
*ACTIVE
 70
0
 10
0.0
 20
0.0
 11
1.0
 21
1.0
 12
148.5
 22
105.0
 13
0.0
 23
0.0
 14
1.0
 24
1.0
 15
0.0
 25
0.0
 16
0.0
 26
0.0
 36
1.0
 17
0.0
 27
0.0
 37
0.0
 40
210.0
 41
1.4142857143
 42
50.0
 43
0.0
 44
0.0
 50
0.0
 51
0.0
 71
0
 72
100
 73
1
 74
1
 75
0
 76
0
 77
0
 78
0
  0
ENDTAB
  0
TABLE
  2
LTYPE
  5
5
100
AcDbSymbolTable
 70
6
  0
LTYPE
  5
14
100
AcDbSymbolTableRecord
100
AcDbLinetypeTableRecord
  2
BYBLOCK
 70
0
  3

 72
65
 73
0
 40
0.0
  0
LTYPE
  5
15
100
AcDbSymbolTableRecord
100
AcDbLinetypeTableRecord
  2
BYLAYER
 70
0
  3

 72
65
 73
0
 40
0.0
  0
LTYPE
  5
16
100
AcDbSymbolTableRecord
100
AcDbLinetypeTableRecord
  2
CONTINUOUS
 70
64
  3
Solid line
 72
65
 73
0
 40
0.0
  0
LTYPE
  5
1F5
100
AcDbSymbolTableRecord
100
AcDbLinetypeTableRecord
  2
CENTER
 70
64
  3
____ _ ____ _ ____ _ ____ _ ____ _ ____ _ ____
 72
65
 73
4
 40
0.6
 49
0.375
 74
0
 49
-0.075
 74
0
 49
0.075
 74
0
 49
-0.075
 74
0
  0
LTYPE
  5
1F6
100
AcDbSymbolTableRecord
100
AcDbLinetypeTableRecord
  2
HIDDEN
 70
64
  3
- - - - - - - - - - - - - - - - - - - -
 72
65
 73
2
 40
0.2
 49
0.1
 74
0
 49
-0.1
 74
0
  0
LTYPE
  5
1F7
100
AcDbSymbolTableRecord
100
AcDbLinetypeTableRecord
  2
PHANTOM
 70
64
  3
_____ _ _ _____ _ _ _____ _ _ _____
 72
65
 73
6
 40
0.8
 49
0.45
 74
0
 49
-0.05
 74
0
 49
0.1
 74
0
 49
-0.05
 74
0
 49
0.1
 74
0
 49
-0.05
 74
0
  0
LTYPE
  5
1F8
100
AcDbSymbolTableRecord
100
AcDbLinetypeTableRecord
  2
DOT
 70
64
  3
. . . . . . . . . . . . . . . . . . . .
 72
65
 73
2
 40
0.2
 49
0.1
 74
0
 49
-0.1
 74
0
  0
LTYPE
  5
1F9
100
AcDbSymbolTableRecord
100
AcDbLinetypeTableRecord
  2
DASHED
 70
64
  3
- - - - - - - - - - - - - - - - - - - -
 72
65
 73
2
 40
0.2
 49
0.1
 74
0
 49
-0.1
 74
0
  0
ENDTAB
  0
TABLE
  2
LAYER
  5
2
100
AcDbSymbolTable
 70
36
  0
LAYER
  5
10
100
AcDbSymbolTableRecord
100
AcDbLayerTableRecord
  2
0
 70
0
 62
7
  6
CONTINUOUS
370
-3
390
F
  0
LAYER
  5
1FA
100
AcDbSymbolTableRecord
100
AcDbLayerTableRecord
  2
DEFAULT_1
 70
0
 62
7
  6
CENTER
370
-3
390
F
  0
LAYER
  5
1FB
100
AcDbSymbolTableRecord
100
AcDbLayerTableRecord
  2
DEFAULT_2
 70
0
 62
8
  6
HIDDEN
370
-3
390
F
  0
LAYER
  5
1FC
100
AcDbSymbolTableRecord
100
AcDbLayerTableRecord
  2
DEFAULT_3
 70
0
 62
7
  6
PHANTOM
370
-3
390
F
  0
LAYER
  5
1FD
100
AcDbSymbolTableRecord
100
AcDbLayerTableRecord
  2
DTM_ALL
 70
0
 62
7
  6
CONTINUOUS
370
-3
390
F
  0
LAYER
  5
1FE
100
AcDbSymbolTableRecord
100
AcDbLayerTableRecord
  2
DTM_AXIS
 70
0
 62
7
  6
CONTINUOUS
370
-3
390
F
  0
LAYER
  5
1FF
100
AcDbSymbolTableRecord
100
AcDbLayerTableRecord
  2
DTM_CSYS
 70
0
 62
7
  6
CONTINUOUS
370
-3
390
F
  0
LAYER
  5
200
100
AcDbSymbolTableRecord
100
AcDbLayerTableRecord
  2
DTM_CURVE
 70
0
 62
7
  6
CONTINUOUS
370
-3
390
F
  0
LAYER
  5
201
100
AcDbSymbolTableRecord
100
AcDbLayerTableRecord
  2
DTM_MASTER
 70
0
 62
7
  6
CONTINUOUS
370
-3
390
F
  0
LAYER
  5
202
100
AcDbSymbolTableRecord
100
AcDbLayerTableRecord
  2
DTM_POINT
 70
0
 62
7
  6
CONTINUOUS
370
-3
390
F
  0
LAYER
  5
203
100
AcDbSymbolTableRecord
100
AcDbLayerTableRecord
  2
DTM_QUILT
 70
0
 62
7
  6
CONTINUOUS
370
-3
390
F
  0
LAYER
  5
204
100
AcDbSymbolTableRecord
100
AcDbLayerTableRecord
  2
GTOL
 70
0
 62
7
  6
CONTINUOUS
370
-3
390
F
  0
LAYER
  5
205
100
AcDbSymbolTableRecord
100
AcDbLayerTableRecord
  2
NOTES
 70
0
 62
7
  6
CONTINUOUS
370
-3
390
F
  0
ENDTAB
  0
TABLE
  2
STYLE
  5
3
100
AcDbSymbolTable
 70
1
  0
STYLE
  5
11
100
AcDbSymbolTableRecord
100
AcDbTextStyleTableRecord
  2
STANDARD
 70
0
 40
0.0
 41
1.0
 50
0.0
 71
0
 42
0.2
  3
cgtime.ttf
  4

  0
STYLE
  5
206
100
AcDbSymbolTableRecord
100
AcDbTextStyleTableRecord
  2
TEXTSTYLE_1
 70
0
 40
0.0
 41
0.8
 50
0.0
 71
0
 42
0.2
  3
gdt
  4

  0
STYLE
  5
207
100
AcDbSymbolTableRecord
100
AcDbTextStyleTableRecord
  2
TEXTSTYLE_2
 70
0
 40
0.0
 41
1.0
 50
0.0
 71
0
 42
0.2
  3
trium.ttf
  4

  0
STYLE
  5
208
100
AcDbSymbolTableRecord
100
AcDbTextStyleTableRecord
  2
TEXTSTYLE_3
 70
0
 40
0.0
 41
1.0
 50
0.0
 71
0
 42
0.2
  3
calibri.ttf
  4

  0
ENDTAB
  0
TABLE
  2
VIEW
  5
6
100
AcDbSymbolTable
 70
0
  0
ENDTAB
  0
TABLE
  2
UCS
  5
7
100
AcDbSymbolTable
 70
0
  0
ENDTAB
  0
TABLE
  2
APPID
  5
9
100
AcDbSymbolTable
 70
1
  0
APPID
  5
209
100
AcDbSymbolTableRecord
100
AcDbRegAppTableRecord
  2
ACAD
 70
0
  0
ENDTAB
  0
TABLE
  2
BLOCK_RECORD
  5
1
100
AcDbSymbolTable
 70
0
  0
BLOCK_RECORD
  5
20A
100
AcDbSymbolTableRecord
100
AcDbBlockTableRecord
  2
*Model_Space
  0
BLOCK_RECORD
  5
20B
100
AcDbSymbolTableRecord
100
AcDbBlockTableRecord
  2
*Paper_Space
  0
BLOCK_RECORD
  5
20C
100
AcDbSymbolTableRecord
100
AcDbBlockTableRecord
  2
_FILLED
  0
BLOCK_RECORD
  5
20D
100
AcDbSymbolTableRecord
100
AcDbBlockTableRecord
  2
*D0
  0
BLOCK_RECORD
  5
20E
100
AcDbSymbolTableRecord
100
AcDbBlockTableRecord
  2
*D1
  0
BLOCK_RECORD
  5
20F
100
AcDbSymbolTableRecord
100
AcDbBlockTableRecord
  2
*D2
  0
BLOCK_RECORD
  5
210
100
AcDbSymbolTableRecord
100
AcDbBlockTableRecord
  2
*D3
  0
BLOCK_RECORD
  5
211
100
AcDbSymbolTableRecord
100
AcDbBlockTableRecord
  2
*D4
  0
BLOCK_RECORD
  5
212
100
AcDbSymbolTableRecord
100
AcDbBlockTableRecord
  2
*D5
  0
BLOCK_RECORD
  5
213
100
AcDbSymbolTableRecord
100
AcDbBlockTableRecord
  2
*D6
  0
BLOCK_RECORD
  5
214
100
AcDbSymbolTableRecord
100
AcDbBlockTableRecord
  2
*T1
  0
ENDTAB
  0
TABLE
  2
DIMSTYLE
  5
A
100
AcDbSymbolTable
 70
1
100
AcDbDimStyleTable
 71
0
  0
DIMSTYLE
105
215
100
AcDbSymbolTableRecord
100
AcDbDimStyleTableRecord
  2
STANDARD
 70
0
  3

  4

 40
1.0
 41
3.5
 42
1.0
 43
0.38
 44
1.5
 45
0.0
 46
0.0
 47
0.001
 48
0.001
140
2.5
141
0.09
142
0.0
143
25.4
144
1.0
145
0.0
146
1.0
147
0.625
 71
1.0
 72
0.0
 73
1
 74
1
 75
0
 76
0
 77
0
 78
8
 79
2
170
0
171
2
172
0
173
0
174
0
175
0
176
0
177
0
178
0
270
2
179
3
271
3
272
3
273
2
274
2
275
0
280
0
281
0
282
0
283
1
284
8
285
0
286
0
287
3
288
0
340
11
278
44
341
20C
342
20C
343
20C
344
20C
  0
DIMSTYLE
105
216
100
AcDbSymbolTableRecord
100
AcDbDimStyleTableRecord
  2
DIMSTYLE_1
 70
0
  3

  4

 40
1.0
 41
3.5
 42
1.0
 43
0.38
 44
1.5
 45
0.0
 46
0.0
 47
0.0
 48
0.0
140
2.5
141
0.09
142
0.0
143
25.4
144
1.0
145
0.0
146
1.0
147
1.25
 71
0.0
 72
0.0
 73
1
 74
1
 75
0
 76
0
 77
0
 78
8
 79
2
170
0
171
2
172
0
173
0
174
0
175
0
176
0
177
0
178
0
270
2
179
3
271
3
272
3
273
2
274
2
275
0
280
0
281
0
282
0
283
1
284
8
285
0
286
0
287
3
288
0
340
11
278
44
341
20C
342
20C
343
20C
344
20C
  0
ENDTAB
  0
ENDSEC
  0
SECTION
  2
BLOCKS
  0
BLOCK
  5
20
100
AcDbEntity
  8
0
100
AcDbBlockBegin
  2
*Model_Space
 70
0
 10
0.0
 20
0.0
 30
0.0
  3
*Model_Space
  1

  0
ENDBLK
  5
21
100
AcDbEntity
  8
0
100
AcDbBlockEnd
  0
BLOCK
  5
1C
100
AcDbEntity
  8
0
100
AcDbBlockBegin
  2
*Paper_Space
 70
0
 10
0.0
 20
0.0
 30
0.0
  3
*Paper_Space
  1

  0
ENDBLK
  5
1D
100
AcDbEntity
  8
0
100
AcDbBlockEnd
  0
BLOCK
  5
217
100
AcDbEntity
  8
0
100
AcDbBlockBegin
  2
_FILLED
 70
64
 10
0.0
 20
0.0
  3
_FILLED
  1

  0
SOLID
  5
218
100
AcDbEntity
  8
0
  6
BYBLOCK
 62
0
100
AcDbTrace
 10
0.0
 20
0.0
 11
-1.0
 21
0.2142857143
 12
-1.0
 22
-0.2142857143
 13
-1.0
 23
-0.2142857143
  0
ENDBLK
  5
219
100
AcDbEntity
  8
0
  6
BYBLOCK
 62
0
100
AcDbBlockEnd
  0
BLOCK
  5
21A
100
AcDbEntity
  8
0
100
AcDbBlockBegin
 62
2
  6
CONTINUOUS
  2
*D0
 70
65
 10
0.0
 20
0.0
  3
*D0
  1

  0
TEXT
  5
21B
100
AcDbEntity
  8
0
100
AcDbText
 62
2
  6
CONTINUOUS
 10
22.8789061917
 20
112.5394191153
  7
STANDARD
 40
2.5
  1
80
 72
5
 11
26.5170384874
 21
112.5394191153
100
AcDbText
  0
TEXT
  5
21C
100
AcDbEntity
  8
0
100
AcDbText
 62
2
  6
CONTINUOUS
 10
26.5170384874
 20
112.5394191153
  7
STANDARD
 40
2.5
  1
mm
 72
5
 11
32.1882447131
 21
112.5394191153
100
AcDbText
  0
TEXT
  5
21D
100
AcDbEntity
  8
0
100
AcDbText
 62
2
  6
CONTINUOUS
 10
22.7475832345
 20
108.7894191153
  7
STANDARD
 40
2.5
  1
2-1/4"
 72
5
 11
32.3195676703
 21
108.7894191153
100
AcDbText
  0
LINE
  5
21E
100
AcDbEntity
  8
0
100
AcDbLine
 62
2
  6
CONTINUOUS
 10
102.0686234483
 20
153.7894191153
 11
26.0335754524
 21
153.7894191153
  0
LINE
  5
21F
100
AcDbEntity
  8
0
100
AcDbLine
 62
2
  6
CONTINUOUS
 10
45.5686234483
 20
73.7894191153
 11
26.0335754524
 21
73.7894191153
  0
LINE
  5
220
100
AcDbEntity
  8
0
100
AcDbLine
 62
2
  6
CONTINUOUS
 10
27.5335754524
 20
153.7894191153
 11
27.5335754524
 21
116.2894191153
  0
LINE
  5
221
100
AcDbEntity
  8
0
100
AcDbLine
 62
2
  6
CONTINUOUS
 10
27.5335754524
 20
73.7894191153
 11
27.5335754524
 21
107.5394191153
  0
INSERT
  5
222
100
AcDbEntity
  8
0
100
AcDbBlockReference
 62
2
  6
CONTINUOUS
  2
_FILLED
 10
27.5335754524
 20
153.7894191153
 41
3.5
 42
3.5
 43
3.5
 50
90.0
  0
INSERT
  5
223
100
AcDbEntity
  8
0
100
AcDbBlockReference
 62
2
  6
CONTINUOUS
  2
_FILLED
 10
27.5335754524
 20
73.7894191153
 41
3.5
 42
3.5
 43
3.5
 50
270.0
  0
ENDBLK
  5
224
100
AcDbEntity
  8
0
  6
BYBLOCK
 62
0
100
AcDbBlockEnd
  0
BLOCK
  5
225
100
AcDbEntity
  8
0
100
AcDbBlockBegin
 62
2
  6
CONTINUOUS
  2
*D1
 70
65
 10
0.0
 20
0.0
  3
*D1
  1

  0
TEXT
  5
226
100
AcDbEntity
  8
0
100
AcDbText
 62
2
  6
CONTINUOUS
 10
81.9139541876
 20
169.8171384964
  7
STANDARD
 40
2.5
  1
80
 72
5
 11
85.5520864833
 21
169.8171384964
100
AcDbText
  0
TEXT
  5
227
100
AcDbEntity
  8
0
100
AcDbText
 62
2
  6
CONTINUOUS
 10
85.5520864833
 20
169.8171384964
  7
STANDARD
 40
2.5
  1
mm
 72
5
 11
91.223292709
 21
169.8171384964
100
AcDbText
  0
TEXT
  5
228
100
AcDbEntity
  8
0
100
AcDbText
 62
2
  6
CONTINUOUS
 10
81.7826312304
 20
166.0671384964
  7
STANDARD
 40
2.5
  1
3-1/8"
 72
5
 11
91.3546156662
 21
166.0671384964
100
AcDbText
  0
LINE
  5
229
100
AcDbEntity
  8
0
100
AcDbLine
 62
2
  6
CONTINUOUS
 10
46.5686234483
 20
98.2894191153
 11
46.5686234483
 21
172.5671384964
  0
LINE
  5
22A
100
AcDbEntity
  8
0
100
AcDbLine
 62
2
  6
CONTINUOUS
 10
126.5686234483
 20
154.7894191153
 11
126.5686234483
 21
172.5671384964
  0
LINE
  5
22B
100
AcDbEntity
  8
0
100
AcDbLine
 62
2
  6
CONTINUOUS
 10
46.5686234483
 20
171.0671384964
 11
80.6639541876
 21
171.0671384964
  0
LINE
  5
22C
100
AcDbEntity
  8
0
100
AcDbLine
 62
2
  6
CONTINUOUS
 10
126.5686234483
 20
171.0671384964
 11
92.473292709
 21
171.0671384964
  0
INSERT
  5
22D
100
AcDbEntity
  8
0
100
AcDbBlockReference
 62
2
  6
CONTINUOUS
  2
_FILLED
 10
46.5686234483
 20
171.0671384964
 41
3.5
 42
3.5
 43
3.5
 50
180.0
  0
INSERT
  5
22E
100
AcDbEntity
  8
0
100
AcDbBlockReference
 62
2
  6
CONTINUOUS
  2
_FILLED
 10
126.5686234483
 20
171.0671384964
 41
3.5
 42
3.5
 43
3.5
  0
ENDBLK
  5
22F
100
AcDbEntity
  8
0
  6
BYBLOCK
 62
0
100
AcDbBlockEnd
  0
BLOCK
  5
230
100
AcDbEntity
  8
0
100
AcDbBlockBegin
 62
2
  6
CONTINUOUS
  2
*D2
 70
65
 10
0.0
 20
0.0
  3
*D2
  1

  0
TEXT
  5
231
100
AcDbEntity
  8
0
100
AcDbText
 62
2
  6
CONTINUOUS
 10
94.1266961118
 20
99.4171441171
  7
STANDARD
 40
2.5
  1
114
 72
5
 11
99.5838945554
 21
99.4171441171
100
AcDbText
  0
TEXT
  5
232
100
AcDbEntity
  8
0
100
AcDbText
 62
2
  6
CONTINUOUS
 10
99.5838945554
 20
99.4171441171
  7
STANDARD
 40
2.5
  1
mm
 72
5
 11
105.2551007811
 21
99.4171441171
100
AcDbText
  0
TEXT
  5
233
100
AcDbEntity
  8
0
100
AcDbText
 62
2
  6
CONTINUOUS
 10
94.9049062285
 20
95.6671441171
  7
STANDARD
 40
2.5
  1
4-1/2"
 72
5
 11
104.4768906643
 21
95.6671441171
100
AcDbText
  0
LINE
  5
234
100
AcDbEntity
  8
0
100
AcDbLine
 62
2
  6
CONTINUOUS
 10
127.2757302295
 20
153.0823123341
 11
140.7515586182
 21
139.6064839453
  0
LINE
  5
235
100
AcDbEntity
  8
0
100
AcDbLine
 62
2
  6
CONTINUOUS
 10
47.2757302295
 20
73.0823123341
 11
60.7515586182
 21
59.6064839453
  0
LINE
  5
236
100
AcDbEntity
  8
0
100
AcDbLine
 62
2
  6
CONTINUOUS
 10
139.6908984464
 20
140.6671441171
 11
102.1908984464
 21
103.1671441171
  0
LINE
  5
237
100
AcDbEntity
  8
0
100
AcDbLine
 62
2
  6
CONTINUOUS
 10
59.6908984464
 20
60.6671441171
 11
93.6549062285
 21
94.6311518992
  0
INSERT
  5
238
100
AcDbEntity
  8
0
100
AcDbBlockReference
 62
2
  6
CONTINUOUS
  2
_FILLED
 10
139.6908984464
 20
140.6671441171
 41
3.5
 42
3.5
 43
3.5
 50
45.0
  0
INSERT
  5
239
100
AcDbEntity
  8
0
100
AcDbBlockReference
 62
2
  6
CONTINUOUS
  2
_FILLED
 10
59.6908984464
 20
60.6671441171
 41
3.5
 42
3.5
 43
3.5
 50
225.0
  0
ENDBLK
  5
23A
100
AcDbEntity
  8
0
  6
BYBLOCK
 62
0
100
AcDbBlockEnd
  0
BLOCK
  5
23B
100
AcDbEntity
  8
0
100
AcDbBlockBegin
 62
2
  6
CONTINUOUS
  2
*D3
 70
65
 10
0.0
 20
0.0
  3
*D3
  1

  0
TEXT
  5
23C
100
AcDbEntity
  8
0
100
AcDbText
 62
2
  6
CONTINUOUS
 10
148.5173690892
 20
160.842082963
  7
STANDARD
 40
2.5
  1
7
 72
5
 11
150.336435237
 21
160.842082963
100
AcDbText
  0
TEXT
  5
23D
100
AcDbEntity
  8
0
100
AcDbText
 62
2
  6
CONTINUOUS
 10
150.336435237
 20
160.842082963
  7
STANDARD
 40
2.5
  1
mm
 72
5
 11
156.0076414627
 21
160.842082963
100
AcDbText
  0
TEXT
  5
23E
100
AcDbEntity
  8
0
100
AcDbText
 62
2
  6
CONTINUOUS
 10
148.5173690892
 20
157.092082963
  7
STANDARD
 40
2.5
  1
1/4"
 72
5
 11
155.0543340697
 21
157.092082963
100
AcDbText
  0
LINE
  5
23F
100
AcDbEntity
  8
0
100
AcDbLine
 62
2
  6
CONTINUOUS
 10
127.5686234483
 20
146.7894191153
 11
144.0173690892
 21
146.7894191153
  0
LINE
  5
240
100
AcDbEntity
  8
0
100
AcDbLine
 62
2
  6
CONTINUOUS
 10
127.5686234483
 20
153.7894191153
 11
144.0173690892
 21
153.7894191153
  0
LINE
  5
241
100
AcDbEntity
  8
0
100
AcDbLine
 62
2
  6
CONTINUOUS
 10
142.5173690892
 20
146.7894191153
 11
142.5173690892
 21
141.7894191153
  0
LINE
  5
242
100
AcDbEntity
  8
0
100
AcDbLine
 62
2
  6
CONTINUOUS
 10
142.5173690892
 20
153.7894191153
 11
142.5173690892
 21
162.092082963
  0
LINE
  5
243
100
AcDbEntity
  8
0
100
AcDbLine
 62
2
  6
CONTINUOUS
 10
142.5173690892
 20
162.092082963
 11
147.2673690892
 21
162.092082963
  0
INSERT
  5
244
100
AcDbEntity
  8
0
100
AcDbBlockReference
 62
2
  6
CONTINUOUS
  2
_FILLED
 10
142.5173690892
 20
146.7894191153
 41
3.5
 42
3.5
 43
3.5
 50
90.0
  0
INSERT
  5
245
100
AcDbEntity
  8
0
100
AcDbBlockReference
 62
2
  6
CONTINUOUS
  2
_FILLED
 10
142.5173690892
 20
153.7894191153
 41
3.5
 42
3.5
 43
3.5
 50
270.0
  0
ENDBLK
  5
246
100
AcDbEntity
  8
0
  6
BYBLOCK
 62
0
100
AcDbBlockEnd
  0
BLOCK
  5
247
100
AcDbEntity
  8
0
100
AcDbBlockBegin
 62
2
  6
CONTINUOUS
  2
*D4
 70
65
 10
0.0
 20
0.0
  3
*D4
  1

  0
TEXT
  5
248
100
AcDbEntity
  8
0
100
AcDbText
 62
2
  6
CONTINUOUS
 10
30.3985671116
 20
59.2647581113
  7
STANDARD
 40
2.5
  1
5
 72
5
 11
32.2176332594
 21
59.2647581113
100
AcDbText
  0
TEXT
  5
249
100
AcDbEntity
  8
0
100
AcDbText
 62
2
  6
CONTINUOUS
 10
32.2176332594
 20
59.2647581113
  7
STANDARD
 40
2.5
  1
mm
 72
5
 11
37.8888394851
 21
59.2647581113
100
AcDbText
  0
TEXT
  5
24A
100
AcDbEntity
  8
0
100
AcDbText
 62
2
  6
CONTINUOUS
 10
31.3518745046
 20
55.5147581113
  7
STANDARD
 40
2.5
  1
1/4"
 72
5
 11
37.8888394851
 21
55.5147581113
100
AcDbText
  0
TEXT
  5
24B
100
AcDbEntity
  8
0
100
AcDbText
 62
2
  6
CONTINUOUS
 10
36.8090729481
 20
51.7647581113
  7
STANDARD
 40
2.5
  1
 
 72
5
 11
37.8888394851
 21
51.7647581113
100
AcDbText
  0
LINE
  5
24C
100
AcDbEntity
  8
0
100
AcDbLine
 62
2
  6
CONTINUOUS
 10
46.5686234483
 20
72.7894191153
 11
46.5686234483
 21
59.0147581113
  0
LINE
  5
24D
100
AcDbEntity
  8
0
100
AcDbLine
 62
2
  6
CONTINUOUS
 10
51.5686234483
 20
72.7894191153
 11
51.5686234483
 21
59.0147581113
  0
LINE
  5
24E
100
AcDbEntity
  8
0
100
AcDbLine
 62
2
  6
CONTINUOUS
 10
46.5686234483
 20
60.5147581113
 11
39.1388394851
 21
60.5147581113
  0
LINE
  5
24F
100
AcDbEntity
  8
0
100
AcDbLine
 62
2
  6
CONTINUOUS
 10
51.5686234483
 20
60.5147581113
 11
56.5686234483
 21
60.5147581113
  0
INSERT
  5
250
100
AcDbEntity
  8
0
100
AcDbBlockReference
 62
2
  6
CONTINUOUS
  2
_FILLED
 10
46.5686234483
 20
60.5147581113
 41
3.5
 42
3.5
 43
3.5
  0
INSERT
  5
251
100
AcDbEntity
  8
0
100
AcDbBlockReference
 62
2
  6
CONTINUOUS
  2
_FILLED
 10
51.5686234483
 20
60.5147581113
 41
3.5
 42
3.5
 43
3.5
 50
180.0
  0
ENDBLK
  5
252
100
AcDbEntity
  8
0
  6
BYBLOCK
 62
0
100
AcDbBlockEnd
  0
BLOCK
  5
253
100
AcDbEntity
  8
0
100
AcDbBlockBegin
 62
2
  6
CONTINUOUS
  2
*D5
 70
65
 10
0.0
 20
0.0
  3
*D5
  1

  0
TEXT
  5
254
100
AcDbEntity
  8
0
100
AcDbText
 62
2
  6
CONTINUOUS
 10
31.7280408709
 20
124.2894191153
  7
STANDARD
 40
2.5
  1
56,5
 72
5
 11
38.4011926219
 21
124.2894191153
100
AcDbText
  0
TEXT
  5
255
100
AcDbEntity
  8
0
100
AcDbText
 62
2
  6
CONTINUOUS
 10
38.4011926219
 20
124.2894191153
  7
STANDARD
 40
2.5
  1
mm
 72
5
 11
44.0723988476
 21
124.2894191153
100
AcDbText
  0
TEXT
  5
256
100
AcDbEntity
  8
0
100
AcDbText
 62
2
  6
CONTINUOUS
 10
33.1142276413
 20
120.5394191153
  7
STANDARD
 40
2.5
  1
2-1/4"
 72
5
 11
42.6862120771
 21
120.5394191153
100
AcDbText
  0
LINE
  5
257
100
AcDbEntity
  8
0
100
AcDbLine
 62
2
  6
CONTINUOUS
 10
45.5686234483
 20
97.2894191153
 11
36.4002198592
 21
97.2894191153
  0
LINE
  5
258
100
AcDbEntity
  8
0
100
AcDbLine
 62
2
  6
CONTINUOUS
 10
102.0686234483
 20
153.7894191153
 11
36.4002198592
 21
153.7894191153
  0
LINE
  5
259
100
AcDbEntity
  8
0
100
AcDbLine
 62
2
  6
CONTINUOUS
 10
37.9002198592
 20
97.2894191153
 11
37.9002198592
 21
119.2894191153
  0
LINE
  5
25A
100
AcDbEntity
  8
0
100
AcDbLine
 62
2
  6
CONTINUOUS
 10
37.9002198592
 20
153.7894191153
 11
37.9002198592
 21
128.0394191153
  0
INSERT
  5
25B
100
AcDbEntity
  8
0
100
AcDbBlockReference
 62
2
  6
CONTINUOUS
  2
_FILLED
 10
37.9002198592
 20
97.2894191153
 41
3.5
 42
3.5
 43
3.5
 50
270.0
  0
INSERT
  5
25C
100
AcDbEntity
  8
0
100
AcDbBlockReference
 62
2
  6
CONTINUOUS
  2
_FILLED
 10
37.9002198592
 20
153.7894191153
 41
3.5
 42
3.5
 43
3.5
 50
90.0
  0
ENDBLK
  5
25D
100
AcDbEntity
  8
0
  6
BYBLOCK
 62
0
100
AcDbBlockEnd
  0
BLOCK
  5
25E
100
AcDbEntity
  8
0
100
AcDbBlockBegin
 62
2
  6
CONTINUOUS
  2
*D6
 70
65
 10
0.0
 20
0.0
  3
*D6
  1

  0
TEXT
  5
25F
100
AcDbEntity
  8
0
100
AcDbText
 62
2
  6
CONTINUOUS
 10
68.6464444599
 20
160.6866523421
  7
STANDARD
 40
2.5
  1
56,5
 72
5
 11
75.3195962109
 21
160.6866523421
100
AcDbText
  0
TEXT
  5
260
100
AcDbEntity
  8
0
100
AcDbText
 62
2
  6
CONTINUOUS
 10
75.3195962109
 20
160.6866523421
  7
STANDARD
 40
2.5
  1
mm
 72
5
 11
80.9908024366
 21
160.6866523421
100
AcDbText
  0
TEXT
  5
261
100
AcDbEntity
  8
0
100
AcDbText
 62
2
  6
CONTINUOUS
 10
70.0326312304
 20
156.9366523421
  7
STANDARD
 40
2.5
  1
2-1/4"
 72
5
 11
79.6046156662
 21
156.9366523421
100
AcDbText
  0
LINE
  5
262
100
AcDbEntity
  8
0
100
AcDbLine
 62
2
  6
CONTINUOUS
 10
46.5686234483
 20
98.2894191153
 11
46.5686234483
 21
163.4366523421
  0
LINE
  5
263
100
AcDbEntity
  8
0
100
AcDbLine
 62
2
  6
CONTINUOUS
 10
103.0686234483
 20
154.7894191153
 11
103.0686234483
 21
163.4366523421
  0
LINE
  5
264
100
AcDbEntity
  8
0
100
AcDbLine
 62
2
  6
CONTINUOUS
 10
46.5686234483
 20
161.9366523421
 11
67.3964444599
 21
161.9366523421
  0
LINE
  5
265
100
AcDbEntity
  8
0
100
AcDbLine
 62
2
  6
CONTINUOUS
 10
103.0686234483
 20
161.9366523421
 11
82.2408024366
 21
161.9366523421
  0
INSERT
  5
266
100
AcDbEntity
  8
0
100
AcDbBlockReference
 62
2
  6
CONTINUOUS
  2
_FILLED
 10
46.5686234483
 20
161.9366523421
 41
3.5
 42
3.5
 43
3.5
 50
180.0
  0
INSERT
  5
267
100
AcDbEntity
  8
0
100
AcDbBlockReference
 62
2
  6
CONTINUOUS
  2
_FILLED
 10
103.0686234483
 20
161.9366523421
 41
3.5
 42
3.5
 43
3.5
  0
ENDBLK
  5
268
100
AcDbEntity
  8
0
  6
BYBLOCK
 62
0
100
AcDbBlockEnd
  0
BLOCK
  5
269
100
AcDbEntity
  8
0
100
AcDbBlockBegin
  2
*T1
 70
1
 10
0.0
 20
0.0
  3
*T1
  1

  0
LINE
  5
26A
100
AcDbEntity
  8
0
100
AcDbLine
 62
7
  6
CONTINUOUS
 10
0.0
 20
0.0
 11
148.0
 21
0.0
  0
LINE
  5
26B
100
AcDbEntity
  8
0
100
AcDbLine
 62
7
  6
CONTINUOUS
 10
0.0
 20
0.0
 11
0.0
 21
-43.0
  0
LINE
  5
26C
100
AcDbEntity
  8
0
100
AcDbLine
 62
7
  6
CONTINUOUS
 10
45.0
 20
-20.0
 11
148.0
 21
-20.0
  0
LINE
  5
26D
100
AcDbEntity
  8
0
100
AcDbLine
 62
7
  6
CONTINUOUS
 10
45.0
 20
-28.0
 11
148.0
 21
-28.0
  0
LINE
  5
26E
100
AcDbEntity
  8
0
100
AcDbLine
 62
7
  6
CONTINUOUS
 10
0.0
 20
-43.0
 11
148.0
 21
-43.0
  0
LINE
  5
26F
100
AcDbEntity
  8
0
100
AcDbLine
 62
7
  6
CONTINUOUS
 10
45.0
 20
0.0
 11
45.0
 21
-43.0
  0
LINE
  5
270
100
AcDbEntity
  8
0
100
AcDbLine
 62
7
  6
CONTINUOUS
 10
143.0
 20
0.0
 11
143.0
 21
-20.0
  0
LINE
  5
271
100
AcDbEntity
  8
0
100
AcDbLine
 62
7
  6
CONTINUOUS
 10
148.0
 20
0.0
 11
148.0
 21
-43.0
  0
TEXT
  5
272
100
AcDbEntity
  8
0
100
AcDbText
 62
7
  6
CONTINUOUS
 10
8.9659749243
 20
-9.175
  7
STANDARD
 40
8.0
  1
O
 72
5
 11
17.370644185
 21
-9.175
100
AcDbText
  0
TEXT
  5
273
100
AcDbEntity
  8
0
100
AcDbText
 62
7
  6
CONTINUOUS
 10
17.370644185
 20
-9.175
  7
STANDARD
 40
5.5
  1
RAC
 72
5
 11
33.9562472979
 21
-9.175
100
AcDbText
  0
TEXT
  5
274
100
AcDbEntity
  8
0
100
AcDbText
 62
7
  6
CONTINUOUS
 10
33.9562472979
 20
-4.425
  7
TEXTSTYLE_2
 40
3.0
  1
®
 72
5
 11
36.0340250757
 21
-4.425
100
AcDbText
  0
TEXT
  5
275
100
AcDbEntity
  8
0
100
AcDbText
 62
7
  6
CONTINUOUS
 10
9.5323389537
 20
-13.825
  7
TEXTSTYLE_2
 40
3.0
  1
D  E  C  O  R
 72
5
 11
34.3878945093
 21
-13.825
100
AcDbText
  0
TEXT
  5
276
100
AcDbEntity
  8
0
100
AcDbText
 62
7
  6
CONTINUOUS
 10
34.3878945093
 20
-13.825
  7
STANDARD
 40
2.5
  1
 
 72
5
 11
35.4676610463
 21
-13.825
100
AcDbText
  0
TEXT
  5
277
100
AcDbEntity
  8
0
100
AcDbText
 62
7
  6
CONTINUOUS
 10
52.8786764706
 20
-4.6
  7
TEXTSTYLE_3
 40
2.7
  1
Part name:
 72
5
 11
71.9375
 21
-4.6
100
AcDbText
  0
TEXT
  5
278
100
AcDbEntity
  8
0
100
AcDbText
 62
7
  6
CONTINUOUS
 10
49.6908613445
 20
-11.35
  7
TEXTSTYLE_3
 40
2.7
  1
Designed by:
 72
5
 11
71.9375
 21
-11.35
100
AcDbText
  0
TEXT
  5
279
100
AcDbEntity
  8
0
100
AcDbText
 62
7
  6
CONTINUOUS
 10
49.3732142857
 20
-18.1
  7
TEXTSTYLE_3
 40
2.7
  1
Designed on:
 72
5
 11
71.9375
 21
-18.1
100
AcDbText
  0
TEXT
  5
27A
100
AcDbEntity
  8
0
100
AcDbText
 62
2
  6
CONTINUOUS
 10
74.0625
 20
-4.6
  7
TEXTSTYLE_3
 40
2.7
  1
C213
 72
5
 11
82.7977941176
 21
-4.6
100
AcDbText
  0
TEXT
  5
27B
100
AcDbEntity
  8
0
100
AcDbText
 62
2
  6
CONTINUOUS
 10
74.0625
 20
-11.35
  7
TEXTSTYLE_3
 40
2.7
  1
ORAC
 72
5
 11
83.9209033613
 21
-11.35
100
AcDbText
  0
TEXT
  5
27C
100
AcDbEntity
  8
0
100
AcDbText
 62
2
  6
CONTINUOUS
 10
74.0625
 20
-18.1
  7
TEXTSTYLE_3
 40
2.7
  1
29-Jul-1977
 72
5
 11
94.1763655462
 21
-18.1
100
AcDbText
  0
TEXT
  5
27D
100
AcDbEntity
  8
0
100
AcDbText
 62
2
  6
CONTINUOUS
 10
94.1763655462
 20
-18.1
  7
TEXTSTYLE_3
 40
2.7
  1
 
 72
5
 11
95.1406512605
 21
-18.1
100
AcDbText
  0
TEXT
  5
27E
100
AcDbEntity
  8
0
100
AcDbText
 62
2
  6
CONTINUOUS
 10
146.5625
 20
-16.0
  7
TEXTSTYLE_3
 40
1.5
  1
Version: 
 50
90.0
 72
5
 11
146.5625
 21
-7.5294117647
100
AcDbText
  0
TEXT
  5
27F
100
AcDbEntity
  8
0
100
AcDbText
 62
2
  6
CONTINUOUS
 10
146.5625
 20
-7.5294117647
  7
TEXTSTYLE_3
 40
1.5
  1
1.0
 50
90.0
 72
5
 11
146.5625
 21
-4.5357142857
100
AcDbText
  0
TEXT
  5
280
100
AcDbEntity
  8
0
100
AcDbText
 62
2
  6
CONTINUOUS
 10
146.5625
 20
-4.5357142857
  7
TEXTSTYLE_3
 40
1.5
  1
 
 50
90.0
 72
5
 11
146.5625
 21
-4.0
100
AcDbText
  0
TEXT
  5
281
100
AcDbEntity
  8
0
100
AcDbText
 62
7
  6
CONTINUOUS
 10
9.6586134454
 20
-22.75
  7
TEXTSTYLE_3
 40
2.5
  1
Biekorfstraat 32
 72
5
 11
35.3413865546
 21
-22.75
100
AcDbText
  0
TEXT
  5
282
100
AcDbEntity
  8
0
100
AcDbText
 62
7
  6
CONTINUOUS
 10
2.2584033613
 20
-26.5
  7
TEXTSTYLE_3
 40
2.5
  1
8400 Oostende - Belgium
 72
5
 11
42.7415966387
 21
-26.5
100
AcDbText
  0
TEXT
  5
283
100
AcDbEntity
  8
0
100
AcDbText
 62
7
  6
CONTINUOUS
 10
4.2699579832
 20
-30.25
  7
TEXTSTYLE_3
 40
2.5
  1
Tel  +32 (0)59 80 32 52
 72
5
 11
40.7300420168
 21
-30.25
100
AcDbText
  0
TEXT
  5
284
100
AcDbEntity
  8
0
100
AcDbText
 62
7
  6
CONTINUOUS
 10
5.7405462185
 20
-34.0
  7
TEXTSTYLE_3
 40
2.5
  1
www.oracdecor.com
 72
5
 11
39.2594537815
 21
-34.0
100
AcDbText
  0
TEXT
  5
285
100
AcDbEntity
  8
0
100
AcDbText
 62
7
  6
CONTINUOUS
 10
5.5777310924
 20
-37.75
  7
TEXTSTYLE_3
 40
2.5
  1
info@oracdecor.com
 72
5
 11
39.4222689076
 21
-37.75
100
AcDbText
  0
TEXT
  5
286
100
AcDbEntity
  8
0
100
AcDbText
 62
7
  6
CONTINUOUS
 10
46.0625
 20
-23.375
  7
TEXTSTYLE_3
 40
2.5
  1
Unless otherwise specified: all dimensions are in millimeters 
 72
5
 11
143.4259453782
 21
-23.375
100
AcDbText
  0
TEXT
  5
287
100
AcDbEntity
  8
0
100
AcDbText
 62
7
  6
CONTINUOUS
 10
46.0625
 20
-27.125
  7
TEXTSTYLE_3
 40
2.5
  1
and inches, scale 1:1, length 2 meters
 72
5
 11
106.1675420168
 21
-27.125
100
AcDbText
  0
TEXT
  5
288
100
AcDbEntity
  8
0
100
AcDbText
 62
7
  6
CONTINUOUS
 10
46.0625
 20
-31.81
  7
TEXTSTYLE_3
 40
1.8
  1
All information in this document is Orac's exclusive property.  It may in no case 
 72
5
 11
137.5070378151
 21
-31.81
100
AcDbText
  0
TEXT
  5
289
100
AcDbEntity
  8
0
100
AcDbText
 62
7
  6
CONTINUOUS
 10
46.0625
 20
-34.87
  7
TEXTSTYLE_3
 40
1.8
  1
be reproduced, even partly, be communicated to a third party or used for any 
 72
5
 11
136.3272058824
 21
-34.87
100
AcDbText
  0
TEXT
  5
28A
100
AcDbEntity
  8
0
100
AcDbText
 62
7
  6
CONTINUOUS
 10
46.0625
 20
-37.93
  7
TEXTSTYLE_3
 40
1.8
  1
possible purpose without ORAC's express written permission. Further legal 
 72
5
 11
132.7952731092
 21
-37.93
100
AcDbText
  0
TEXT
  5
28B
100
AcDbEntity
  8
0
100
AcDbText
 62
7
  6
CONTINUOUS
 10
46.0625
 20
-40.99
  7
TEXTSTYLE_3
 40
1.8
  1
information can be found at https://www.oracdecor.com/en/general-sales-conditions
 72
5
 11
145.349894958
 21
-40.99
100
AcDbText
  0
ENDBLK
  5
28C
100
AcDbEntity
  8
0
  6
BYBLOCK
 62
0
100
AcDbBlockEnd
  0
ENDSEC
  0
SECTION
  2
ENTITIES
  0
DIMENSION
  5
28D
100
AcDbEntity
  8
0
100
AcDbDimension
 62
2
  6
CONTINUOUS
  2
*D0
 10
27.5335754524
 20
73.7894191153
 11
27.5335754524
 21
111.9144191153
 70
160
 71
2
 72
2
 41
0.9
 42
80.0
  1
<>mm\P2-1/4"
  3
DIMSTYLE_1
100
AcDbAlignedDimension
 13
103.0686234483
 23
153.7894191153
 14
46.5686234483
 24
73.7894191153
 50
270.0
100
AcDbRotatedDimension
  0
DIMENSION
  5
28E
100
AcDbEntity
  8
0
100
AcDbDimension
 62
2
  6
CONTINUOUS
  2
*D1
 10
126.5686234483
 20
171.0671384964
 11
86.5686234483
 21
169.1921384964
 70
160
 71
2
 72
2
 41
0.9
 42
80.0
  1
<>mm\P3-1/8"
  3
DIMSTYLE_1
100
AcDbAlignedDimension
 13
46.5686234483
 23
97.2894191153
 14
126.5686234483
 24
153.7894191153
100
AcDbRotatedDimension
  0
DIMENSION
  5
28F
100
AcDbEntity
  8
0
100
AcDbDimension
 62
2
  6
CONTINUOUS
  2
*D2
 10
59.6908984464
 20
60.6671441171
 11
99.6908984464
 21
98.7921441171
 70
160
 71
2
 72
2
 41
0.9
 42
113.1370849898
  1
<>mm\P4-1/2"
  3
DIMSTYLE_1
100
AcDbAlignedDimension
 13
126.5686234483
 23
153.7894191153
 14
46.5686234483
 24
73.7894191153
 50
225.0
100
AcDbRotatedDimension
  0
DIMENSION
  5
290
100
AcDbEntity
  8
0
100
AcDbDimension
 62
2
  6
CONTINUOUS
  2
*D3
 10
142.5173690892
 20
153.7894191153
 11
152.2625052759
 21
160.217082963
 70
160
 71
1
 72
2
 41
0.9
 42
7.0
  1
<>mm\P1/4"
  3
DIMSTYLE_1
100
AcDbAlignedDimension
 13
126.5686234483
 23
146.7894191153
 14
126.5686234483
 24
153.7894191153
 50
90.0
100
AcDbRotatedDimension
  0
DIMENSION
  5
291
100
AcDbEntity
  8
0
100
AcDbDimension
 62
2
  6
CONTINUOUS
  2
*D4
 10
51.5686234483
 20
60.5147581113
 11
34.1437032983
 21
58.6397581113
 70
160
 71
3
 72
2
 41
0.9
 42
5.0
  1
<>mm\P1/4"\P 
  3
DIMSTYLE_1
100
AcDbAlignedDimension
 13
46.5686234483
 23
73.7894191153
 14
51.5686234483
 24
73.7894191153
100
AcDbRotatedDimension
  0
DIMENSION
  5
292
100
AcDbEntity
  8
0
100
AcDbDimension
 62
2
  6
CONTINUOUS
  2
*D5
 10
37.9002198592
 20
153.7894191153
 11
37.9002198592
 21
123.6644191153
 70
160
 71
2
 72
2
 41
0.9
 42
56.5
  1
<>mm\P2-1/4"
  3
DIMSTYLE_1
100
AcDbAlignedDimension
 13
46.5686234483
 23
97.2894191153
 14
103.0686234483
 24
153.7894191153
 50
90.0
100
AcDbRotatedDimension
  0
DIMENSION
  5
293
100
AcDbEntity
  8
0
100
AcDbDimension
 62
2
  6
CONTINUOUS
  2
*D6
 10
103.0686234483
 20
161.9366523421
 11
74.8186234483
 21
160.0616523421
 70
160
 71
2
 72
2
 41
0.9
 42
56.5
  1
<>mm\P2-1/4"
  3
DIMSTYLE_1
100
AcDbAlignedDimension
 13
46.5686234483
 23
97.2894191153
 14
103.0686234483
 24
153.7894191153
100
AcDbRotatedDimension
  0
ACAD_TABLE
  5
294
100
AcDbEntity
  8
0
 62
2
  6
CONTINUOUS
100
AcDbBlockReference
  2
*T1
 10
144.0
 20
48.0
 30
0.0
100
AcDbTable
342
       2F2
343
214
 11
1.0
 21
0.0
 31
0.0
 90
22
 91
4
 92
4
 93
0
 94
0
 95
0
 96
0
141
15.0
141
5.0
141
8.0
141
15.0
142
45.0
142
28.0
142
70.0
142
5.0
171
1
172
0
173
0
174
0
175
1
176
1
 91
41
178
0
145
0.0
301
CELL_VALUE
 90
4
  1
\A1;O\H5.5;RAC\fCG Triumvirate;\H3.0;\S®^ ;\PD  E  C  O  R\fCG Times;\H2.5; 
304
ACVALUE_END
170
5
140
8.0
 64
7
171
1
172
0
173
0
174
0
175
1
176
2
 91
57
178
0
145
0.0
  7
TEXTSTYLE_3
301
CELL_VALUE
 90
4
  1
Part name:\PDesigned by:\PDesigned on:
304
ACVALUE_END
170
6
140
2.7
 64
7
171
1
172
0
173
0
174
0
175
1
176
2
 91
49
178
0
145
0.0
  7
TEXTSTYLE_3
301
CELL_VALUE
 90
4
  1
C213\PORAC\P29-Jul-1977 
304
ACVALUE_END
170
4
140
2.7
171
1
172
0
173
0
174
0
175
1
176
2
 91
49
178
0
145
0.0
  7
TEXTSTYLE_3
301
CELL_VALUE
 90
4
  1
Version: 1.0 
304
ACVALUE_END
170
6
140
1.5
171
1
172
0
173
0
174
0
175
1
176
3
 91
57
178
0
145
0.0
  7
TEXTSTYLE_3
301
CELL_VALUE
 90
4
  1
Biekorfstraat 32\P8400 Oostende - Belgium\PTel  +32 (0)59 80 32 52\Pwww.oracdecor.com\Pinfo@oracdecor.com
304
ACVALUE_END
170
5
140
2.5
 64
7
171
1
172
0
173
1
174
0
175
1
176
1
 91
1
178
0
145
0.0
170
1
171
1
172
0
173
1
174
0
175
1
176
1
 91
1
178
0
145
0.0
170
1
171
1
172
0
173
1
174
0
175
1
176
1
 91
1
178
0
145
0.0
170
1
171
1
172
0
173
1
174
0
175
1
176
1
 91
1
178
0
145
0.0
170
1
171
1
172
0
173
0
174
0
175
3
176
1
 91
57
178
0
145
0.0
  7
TEXTSTYLE_3
301
CELL_VALUE
 90
4
  1
Unless otherwise specified: all dimensions are in millimeters \Pand inches, scale 1:1, length 2 meters
304
ACVALUE_END
170
4
140
2.5
 64
7
171
1
172
0
173
1
174
0
175
1
176
1
 91
1
178
0
145
0.0
170
1
171
1
172
0
173
1
174
0
175
1
176
1
 91
1
178
0
145
0.0
170
1
171
1
172
0
173
1
174
0
175
1
176
1
 91
1
178
0
145
0.0
170
1
171
1
172
0
173
0
174
0
175
3
176
1
 91
57
178
0
145
0.0
  7
TEXTSTYLE_3
301
CELL_VALUE
 90
4
  2
All information in this document is Orac's exclusive property.  It may in no case \Pbe reproduced, even partly, be communicated to a third party or used for any \Ppossible purpose without ORAC's express written permission. Further legal \Pinformation
  1
 can be found at https://www.oracdecor.com/en/general-sales-conditions
304
ACVALUE_END
170
4
140
1.8
 64
7
171
1
172
0
173
1
174
0
175
1
176
1
 91
1
178
0
145
0.0
170
1
171
1
172
0
173
1
174
0
175
1
176
1
 91
1
178
0
145
0.0
170
1
  0
LINE
  5
295
100
AcDbEntity
  8
0
100
AcDbLine
 62
5
  6
CONTINUOUS
 10
0.0
 20
0.0
 11
0.0
 21
210.0
  0
LINE
  5
296
100
AcDbEntity
  8
0
100
AcDbLine
 62
7
  6
CONTINUOUS
 10
5.0
 20
5.0
 11
5.0
 21
195.0
  0
LINE
  5
297
100
AcDbEntity
  8
0
100
AcDbLine
 62
5
  6
CONTINUOUS
 10
0.0
 20
0.0
 11
297.0
 21
0.0
  0
LINE
  5
298
100
AcDbEntity
  8
0
100
AcDbLine
 62
7
  6
CONTINUOUS
 10
5.0
 20
5.0
 11
292.0
 21
5.0
  0
LINE
  5
299
100
AcDbEntity
  8
0
100
AcDbLine
 62
4
  6
CONTINUOUS
 10
148.5
 20
195.0
 11
148.5
 21
205.0
  0
LINE
  5
29A
100
AcDbEntity
  8
0
100
AcDbLine
 62
7
  6
CONTINUOUS
 10
5.0
 20
195.0
 11
292.0
 21
195.0
  0
LINE
  5
29B
100
AcDbEntity
  8
0
100
AcDbLine
 62
5
  6
CONTINUOUS
 10
0.0
 20
210.0
 11
297.0
 21
210.0
  0
LINE
  5
29C
100
AcDbEntity
  8
0
100
AcDbLine
 62
7
  6
CONTINUOUS
 10
292.0
 20
5.0
 11
292.0
 21
195.0
  0
LINE
  5
29D
100
AcDbEntity
  8
0
100
AcDbLine
 62
5
  6
CONTINUOUS
 10
297.0
 20
0.0
 11
297.0
 21
210.0
  0
LINE
  5
29E
100
AcDbEntity
  8
0
100
AcDbLine
 62
7
  6
CONTINUOUS
 10
201.9547921624
 20
54.6987486431
 11
206.9534095947
 21
54.75306995
  0
LINE
  5
29F
100
AcDbEntity
  8
0
100
AcDbLine
 62
7
  6
CONTINUOUS
 10
159.4299567616
 20
132.1571265342
 11
159.5133866424
 21
124.0567355782
  0
LINE
  5
2A0
100
AcDbEntity
  8
0
100
AcDbLine
 62
7
  6
CONTINUOUS
 10
159.5666081339
 20
118.8893437015
 11
159.6718923083
 21
108.6670712197
  0
LINE
  5
2A1
100
AcDbEntity
  8
0
100
AcDbLine
 62
7
  6
CONTINUOUS
 10
201.9547921624
 20
54.6987486431
 11
159.6718923083
 21
108.6670712197
  0
LINE
  5
2A2
100
AcDbEntity
  8
0
100
AcDbLine
 62
7
  6
CONTINUOUS
 10
175.2828168762
 20
146.4495527337
 11
192.5930881036
 21
164.1274463276
  0
LINE
  5
2A3
100
AcDbEntity
  8
0
100
AcDbLine
 62
7
  6
CONTINUOUS
 10
216.7910699499
 20
70.3551533032
 11
220.5200385545
 21
70.3956769981
  0
LINE
  5
2A4
100
AcDbEntity
  8
0
100
AcDbLine
 62
7
  6
CONTINUOUS
 10
206.9534095947
 20
54.75306995
 11
164.6705097406
 21
108.7213925266
  0
LINE
  5
2A5
100
AcDbEntity
  8
0
100
AcDbLine
 62
7
  6
CONTINUOUS
 10
209.1438840829
 20
171.3107986055
 11
214.0020686321
 21
176.2721575809
  0
LINE
  5
2A6
100
AcDbEntity
  8
0
100
AcDbLine
 62
7
  6
CONTINUOUS
 10
161.4147995672
 20
121.8389337987
 11
159.5133866424
 21
124.0567355782
  0
LINE
  5
2A7
100
AcDbEntity
  8
0
100
AcDbLine
 62
7
  6
CONTINUOUS
 10
161.4652612984
 20
121.7773428361
 11
161.4147995672
 21
121.8389337987
  0
LINE
  5
2A8
100
AcDbEntity
  8
0
100
AcDbLine
 62
7
  6
CONTINUOUS
 10
161.777059055
 20
121.1674682055
 11
159.5133866424
 21
124.0567355782
  0
LINE
  5
2A9
100
AcDbEntity
  8
0
100
AcDbLine
 62
7
  6
CONTINUOUS
 10
216.7910699499
 20
70.3551533032
 11
174.5081700958
 21
124.3234758798
  0
LINE
  5
2AA
100
AcDbEntity
  8
0
100
AcDbLine
 62
7
  6
CONTINUOUS
 10
220.5200385545
 20
70.3956769981
 11
178.2371387004
 21
124.3639995747
  0
LINE
  5
2AB
100
AcDbEntity
  8
0
100
AcDbLine
 62
7
  6
CONTINUOUS
 10
159.6718923083
 20
108.6670712197
 11
164.6705097406
 21
108.7213925266
  0
LINE
  5
2AC
100
AcDbEntity
  8
0
100
AcDbLine
 62
7
  6
CONTINUOUS
 10
159.5666081339
 20
118.8893437015
 11
159.9596766887
 21
118.8702093104
  0
LINE
  5
2AD
100
AcDbEntity
  8
0
100
AcDbLine
 62
7
  6
CONTINUOUS
 10
215.4297310016
 20
179.8221056687
 11
215.3326589223
 21
189.2470477392
  0
LINE
  5
2AE
100
AcDbEntity
  8
0
100
AcDbLine
 62
7
  6
CONTINUOUS
 10
217.1153602172
 20
161.7749815292
 11
217.0587370042
 21
167.2726540496
  0
LINE
  5
2AF
100
AcDbEntity
  8
0
100
AcDbLine
 62
7
  6
CONTINUOUS
 10
174.5081700958
 20
124.3234758798
 11
178.2371387004
 21
124.3639995747
  0
LINE
  5
2B0
100
AcDbEntity
  8
0
100
AcDbLine
 62
7
  6
CONTINUOUS
 10
276.6823709268
 20
128.4881083755
 11
281.1811266159
 21
128.5369975518
  0
LINE
  5
2B1
100
AcDbEntity
  8
0
100
AcDbLine
 62
7
  6
CONTINUOUS
 10
159.4299567616
 20
132.1571265342
 11
165.9459252558
 21
132.2279372992
  0
LINE
  5
2B2
100
AcDbEntity
  8
0
100
AcDbLine
 62
7
  6
CONTINUOUS
 10
228.6298406075
 20
188.9987379098
 11
228.6023884926
 21
189.3912534245
  0
LINE
  5
2B3
100
AcDbEntity
  8
0
100
AcDbLine
 62
7
  6
CONTINUOUS
 10
234.4355040265
 20
178.9579120755
 11
234.3994710727
 21
182.4564309522
  0
LINE
  5
2B4
100
AcDbEntity
  8
0
100
AcDbLine
 62
7
  6
CONTINUOUS
 10
238.8982267618
 20
182.5053201284
 11
238.8261608543
 21
189.5023578816
  0
LINE
  5
2B5
100
AcDbEntity
  8
0
100
AcDbLine
 62
7
  6
CONTINUOUS
 10
259.3982600713
 20
107.8066589526
 11
217.1153602172
 21
161.7749815292
  0
LINE
  5
2B6
100
AcDbEntity
  8
0
100
AcDbLine
 62
7
  6
CONTINUOUS
 10
259.3416368583
 20
113.304331473
 11
217.0587370042
 21
167.2726540496
  0
LINE
  5
2B7
100
AcDbEntity
  8
0
100
AcDbLine
 62
7
  6
CONTINUOUS
 10
259.3982600713
 20
107.8066589526
 11
259.3416368583
 21
113.304331473
  0
LINE
  5
2B8
100
AcDbEntity
  8
0
100
AcDbLine
 62
7
  6
CONTINUOUS
 10
276.7184038806
 20
124.9895894989
 11
234.4355040265
 21
178.9579120755
  0
LINE
  5
2B9
100
AcDbEntity
  8
0
100
AcDbLine
 62
7
  6
CONTINUOUS
 10
276.6823709268
 20
128.4881083755
 11
234.3994710727
 21
182.4564309522
  0
LINE
  5
2BA
100
AcDbEntity
  8
0
100
AcDbLine
 62
7
  6
CONTINUOUS
 10
223.4342384217
 20
189.3350897613
 11
225.6921245634
 21
187.4813317056
  0
LINE
  5
2BB
100
AcDbEntity
  8
0
100
AcDbLine
 62
7
  6
CONTINUOUS
 10
281.1811266159
 20
128.5369975518
 11
238.8982267618
 21
182.5053201284
  0
LINE
  5
2BC
100
AcDbEntity
  8
0
100
AcDbLine
 62
7
  6
CONTINUOUS
 10
276.7184038806
 20
124.9895894989
 11
276.6823709268
 21
128.4881083755
  0
LINE
  5
2BD
100
AcDbEntity
  8
0
100
AcDbLine
 62
7
  6
CONTINUOUS
 10
281.1811266159
 20
128.5369975518
 11
281.1090607084
 21
135.534035305
  0
LINE
  5
2BE
100
AcDbEntity
  8
0
100
AcDbLine
 62
7
  6
CONTINUOUS
 10
234.3994710727
 20
182.4564309522
 11
238.8982267618
 21
182.5053201284
  0
LINE
  5
2BF
100
AcDbEntity
  8
0
100
AcDbLine
 62
7
  6
CONTINUOUS
 10
281.1090607084
 20
135.534035305
 11
238.8261608543
 21
189.5023578816
  0
LINE
  5
2C0
100
AcDbEntity
  8
0
100
AcDbLine
 62
7
  6
CONTINUOUS
 10
238.8261608543
 20
189.5023578816
 11
228.6023884926
 21
189.3912534245
  0
LINE
  5
2C1
100
AcDbEntity
  8
0
100
AcDbLine
 62
7
  6
CONTINUOUS
 10
223.4342384217
 20
189.3350897613
 11
215.3326589223
 21
189.2470477392
  0
LINE
  5
2C2
100
AcDbEntity
  8
0
100
AcDbLine
 62
7
  6
CONTINUOUS
 10
48.4475034459
 20
86.9464368127
 11
46.5686234483
 21
89.1855987999
  0
LINE
  5
2C3
100
AcDbEntity
  8
0
100
AcDbLine
 62
7
  6
CONTINUOUS
 10
46.5686234483
 20
97.2894191153
 11
46.5686234483
 21
89.1855987999
  0
LINE
  5
2C4
100
AcDbEntity
  8
0
100
AcDbLine
 62
7
  6
CONTINUOUS
 10
46.5686234483
 20
84.0160192703
 11
46.5686234483
 21
73.7894191153
  0
LINE
  5
2C5
100
AcDbEntity
  8
0
100
AcDbLine
 62
7
  6
CONTINUOUS
 10
46.5686234483
 20
73.7894191153
 11
51.5686234483
 21
73.7894191153
  0
LINE
  5
2C6
100
AcDbEntity
  8
0
100
AcDbLine
 62
7
  6
CONTINUOUS
 10
46.5686234483
 20
84.0160192703
 11
46.9615596127
 21
83.99260601
  0
LINE
  5
2C7
100
AcDbEntity
  8
0
100
AcDbLine
 62
7
  6
CONTINUOUS
 10
61.5686234483
 20
89.2894191153
 11
65.2986234483
 21
89.2894191153
  0
LINE
  5
2C8
100
AcDbEntity
  8
0
100
AcDbLine
 62
7
  6
CONTINUOUS
 10
62.5713225567
 20
111.4139650074
 11
80.0665470548
 21
128.9091895055
  0
LINE
  5
2C9
100
AcDbEntity
  8
0
100
AcDbLine
 62
7
  6
CONTINUOUS
 10
46.5686234483
 20
97.2894191153
 11
53.0863941942
 21
97.2894191153
  0
LINE
  5
2CA
100
AcDbEntity
  8
0
100
AcDbLine
 62
7
  6
CONTINUOUS
 10
96.6940650613
 20
135.9148607283
 11
101.6041573542
 21
140.8249530212
  0
LINE
  5
2CB
100
AcDbEntity
  8
0
100
AcDbLine
 62
7
  6
CONTINUOUS
 10
103.0686234483
 20
144.3604869271
 11
103.0686234483
 21
153.7894191153
  0
LINE
  5
2CC
100
AcDbEntity
  8
0
100
AcDbLine
 62
7
  6
CONTINUOUS
 10
104.5686234483
 20
126.2894191153
 11
104.5686234483
 21
131.7894191153
  0
LINE
  5
2CD
100
AcDbEntity
  8
0
100
AcDbLine
 62
7
  6
CONTINUOUS
 10
116.3654365535
 20
153.3964829508
 11
116.3420232932
 21
153.7894191153
  0
LINE
  5
2CE
100
AcDbEntity
  8
0
100
AcDbLine
 62
7
  6
CONTINUOUS
 10
122.0686234483
 20
146.7894191153
 11
126.5686234483
 21
146.7894191153
  0
LINE
  5
2CF
100
AcDbEntity
  8
0
100
AcDbLine
 62
7
  6
CONTINUOUS
 10
122.0686234483
 20
143.2894191153
 11
122.0686234483
 21
146.7894191153
  0
LINE
  5
2D0
100
AcDbEntity
  8
0
100
AcDbLine
 62
7
  6
CONTINUOUS
 10
126.5686234483
 20
146.7894191153
 11
126.5686234483
 21
153.7894191153
  0
LINE
  5
2D1
100
AcDbEntity
  8
0
100
AcDbLine
 62
7
  6
CONTINUOUS
 10
126.5686234483
 20
153.7894191153
 11
116.3420232932
 21
153.7894191153
  0
LINE
  5
2D2
100
AcDbEntity
  8
0
100
AcDbLine
 62
7
  6
CONTINUOUS
 10
111.1724437636
 20
153.7894191153
 11
103.0686234483
 21
153.7894191153
  0
LINE
  5
2D3
100
AcDbEntity
  8
0
100
AcDbLine
 62
7
  6
CONTINUOUS
 10
111.1724437636
 20
153.7894191153
 11
113.4116057508
 21
151.9105391177
  0
ARC
  5
2D4
100
AcDbEntity
  8
0
100
AcDbCircle
 62
7
  6
CONTINUOUS
 10
218.1772182166
 20
121.7636315852
 40
49.5222019696
100
AcDbArc
 50
103.3693812222
 51
120.8330860845
  0
ARC
  5
2D5
100
AcDbEntity
  8
0
100
AcDbCircle
 62
7
  6
CONTINUOUS
 10
218.1635504959
 20
121.7687774124
 40
49.5086388036
100
AcDbArc
 50
150.3720268306
 51
163.5230176034
  0
ARC
  5
2D6
100
AcDbEntity
  8
0
100
AcDbCircle
 62
7
  6
CONTINUOUS
 10
260.452401877
 20
67.8036876884
 40
40.0167697735
100
AcDbArc
 50
91.5094854249
 51
176.2861701201
  0
ARC
  5
2D7
100
AcDbEntity
  8
0
100
AcDbCircle
 62
7
  6
CONTINUOUS
 10
218.1695020229
 20
121.772010265
 40
40.0167697735
100
AcDbArc
 50
91.5094854249
 51
176.2861701201
  0
ARC
  5
2D8
100
AcDbEntity
  8
0
100
AcDbCircle
 62
7
  6
CONTINUOUS
 10
205.5694927743
 20
174.8108074775
 40
5.0026328399
100
AcDbArc
 50
283.3700383771
 51
315.6024033892
  0
ARC
  5
2D9
100
AcDbEntity
  8
0
100
AcDbCircle
 62
7
  6
CONTINUOUS
 10
165.891191299
 20
137.2299963605
 40
5.0023674461
100
AcDbArc
 50
270.6269217391
 51
343.519941116
  0
ARC
  5
2DA
100
AcDbEntity
  8
0
100
AcDbCircle
 62
7
  6
CONTINUOUS
 10
210.4293833475
 20
179.7710477241
 40
5.0006203357
100
AcDbArc
 50
315.5978861043
 51
0.5850199382
  0
ARC
  5
2DB
100
AcDbEntity
  8
0
100
AcDbCircle
 62
7
  6
CONTINUOUS
 10
226.8338048786
 20
188.873303562
 40
1.8003813102
100
AcDbArc
 50
230.6417652733
 51
3.9950252155
  0
ARC
  5
2DC
100
AcDbEntity
  8
0
100
AcDbCircle
 62
7
  6
CONTINUOUS
 10
160.0482922144
 20
120.6675602894
 40
1.7998516724
100
AcDbArc
 50
267.2042143797
 51
38.0683569653
  0
ARC
  5
2DD
100
AcDbEntity
  8
0
100
AcDbCircle
 62
7
  6
CONTINUOUS
 10
193.3105759965
 20
163.424129405
 40
1.0047106898
100
AcDbArc
 50
120.8632637209
 51
135.5714436351
  0
ARC
  5
2DE
100
AcDbEntity
  8
0
100
AcDbCircle
 62
7
  6
CONTINUOUS
 10
176.0009683694
 20
145.747078475
 40
1.0045952675
100
AcDbArc
 50
135.6322586463
 51
150.341561917
  0
ARC
  5
2DF
100
AcDbEntity
  8
0
100
AcDbCircle
 62
7
  6
CONTINUOUS
 10
105.1863232495
 20
86.2941888127
 40
49.5
100
AcDbArc
 50
102.7497648996
 51
120.2221486159
  0
ARC
  5
2E0
100
AcDbEntity
  8
0
100
AcDbCircle
 62
7
  6
CONTINUOUS
 10
105.1863232495
 20
86.2941888127
 40
49.5
100
AcDbArc
 50
149.7778513841
 51
162.9329589424
  0
ARC
  5
2E1
100
AcDbEntity
  8
0
100
AcDbCircle
 62
7
  6
CONTINUOUS
 10
105.1863232495
 20
86.2941888127
 40
40.0
100
AcDbArc
 50
90.8848249603
 51
175.7056290495
  0
ARC
  5
2E2
100
AcDbEntity
  8
0
100
AcDbCircle
 62
7
  6
CONTINUOUS
 10
53.0863941942
 20
102.2894191153
 40
5.0
100
AcDbArc
 50
270.0
 51
342.9329589424
  0
ARC
  5
2E3
100
AcDbEntity
  8
0
100
AcDbCircle
 62
7
  6
CONTINUOUS
 10
93.1585311554
 20
139.4503946342
 40
5.0
100
AcDbArc
 50
282.7497648996
 51
315.0
  0
ARC
  5
2E4
100
AcDbEntity
  8
0
100
AcDbCircle
 62
7
  6
CONTINUOUS
 10
98.0686234483
 20
144.3604869271
 40
5.0
100
AcDbArc
 50
315.0
 51
360.0
  0
ARC
  5
2E5
100
AcDbEntity
  8
0
100
AcDbCircle
 62
7
  6
CONTINUOUS
 10
114.5686234483
 20
153.2894191153
 40
1.8
100
AcDbArc
 50
230.0
 51
3.4099604107
  0
ARC
  5
2E6
100
AcDbEntity
  8
0
100
AcDbCircle
 62
7
  6
CONTINUOUS
 10
47.0686234483
 20
85.7894191153
 40
1.8
100
AcDbArc
 50
266.5900395893
 51
40.0
  0
ARC
  5
2E7
100
AcDbEntity
  8
0
100
AcDbCircle
 62
7
  6
CONTINUOUS
 10
63.2784293379
 20
110.7068582262
 40
1.0
100
AcDbArc
 50
135.0
 51
149.7778513841
  0
ARC
  5
2E8
100
AcDbEntity
  8
0
100
AcDbCircle
 62
7
  6
CONTINUOUS
 10
80.773653836
 20
128.2020827243
 40
1.0
100
AcDbArc
 50
120.2221486159
 51
135.0
  0
SPLINE
  5
2E9
100
AcDbEntity
  8
0
100
AcDbSpline
 62
7
  6
CONTINUOUS
 70
0
 71
3
 72
31
 73
27
 74
0
 42
0.0000001
 43
0.0000001
 44
0.0000000001
 40
0.0
 40
0.0
 40
0.0
 40
0.0
 40
0.0624538442
 40
0.1245798404
 40
0.1559458208
 40
0.187499996
 40
0.2503782917
 40
0.3122161228
 40
0.3428140196
 40
0.3734643272
 40
0.4356069366
 40
0.467255651
 40
0.4992356263
 40
0.5314479067
 40
0.5636776838
 40
0.6269560285
 40
0.6576340961
 40
0.6877426534
 40
0.7027261458
 40
0.7177646281
 40
0.7482052288
 40
0.7793360631
 40
0.8111651733
 40
0.8760697322
 40
0.9402844797
 40
1.0
 40
1.0
 40
1.0
 40
1.0
 10
206.9534095947
 20
54.75306995
 30
0.0
 10
206.932989466
 20
55.1668594983
 30
0.0
 10
206.9651429974
 20
55.9972877185
 30
0.0
 10
207.1657988237
 20
57.0153600201
 30
0.0
 10
207.3987505381
 20
57.8118374507
 30
0.0
 10
207.6780596677
 20
58.5986252126
 30
0.0
 10
208.1188428501
 20
59.5407119375
 30
0.0
 10
208.7058524173
 20
60.3958628796
 30
0.0
 10
209.2707279722
 20
60.987394934
 30
0.0
 10
209.8914104648
 20
61.5225988989
 30
0.0
 10
210.5806515834
 20
61.9824191505
 30
0.0
 10
211.3093829762
 20
62.388727212
 30
0.0
 10
211.8767092001
 20
62.676051174
 30
0.0
 10
212.4555364979
 20
62.9484084369
 30
0.0
 10
213.2252545513
 20
63.3018179781
 30
0.0
 10
213.9775121125
 20
63.6731924791
 30
0.0
 10
214.667217227
 20
64.1245258019
 30
0.0
 10
215.0542347419
 20
64.4479091144
 30
0.0
 10
215.3293093508
 20
64.7373378411
 30
0.0
 10
215.5812752822
 20
65.0498913971
 30
0.0
 10
215.8549226235
 20
65.4802189579
 30
0.0
 10
216.1201990704
 20
66.041537856
 30
0.0
 10
216.4026358451
 20
66.8425754682
 30
0.0
 10
216.6301696605
 20
67.8896820443
 30
0.0
 10
216.7612850257
 20
69.1368157286
 30
0.0
 10
216.7876792797
 20
69.9590396294
 30
0.0
 10
216.7910699499
 20
70.3551533032
 30
0.0
  0
SPLINE
  5
2EA
100
AcDbEntity
  8
0
100
AcDbSpline
 62
7
  6
CONTINUOUS
 70
0
 71
3
 72
32
 73
28
 74
0
 42
0.0000001
 43
0.0000001
 44
0.0000000001
 40
0.0
 40
0.0
 40
0.0
 40
0.0
 40
0.06198888
 40
0.1244248656
 40
0.1876395458
 40
0.2194334517
 40
0.2511182551
 40
0.2824854062
 40
0.3134354463
 40
0.3440182551
 40
0.3745029336
 40
0.4052429737
 40
0.4363887506
 40
0.4679199271
 40
0.4997155149
 40
0.5316173662
 40
0.5634606485
 40
0.6264006235
 40
0.65739771
 40
0.6881313997
 40
0.7187861767
 40
0.749600625
 40
0.7806991947
 40
0.8121133113
 40
0.8756279662
 40
0.9391026311
 40
1.0
 40
1.0
 40
1.0
 40
1.0
 10
259.3416368583
 20
113.304331473
 30
0.0
 10
259.8001569391
 20
113.3089625753
 30
0.0
 10
260.7210462319
 20
113.4059691032
 30
0.0
 10
262.0657209412
 20
113.765929285
 30
0.0
 10
263.1480661636
 20
114.2019486023
 30
0.0
 10
263.9928502945
 20
114.6081097005
 30
0.0
 10
264.60932986
 20
114.943953838
 30
0.0
 10
265.1961123443
 20
115.3183417233
 30
0.0
 10
265.742024773
 20
115.7374633891
 30
0.0
 10
266.2352111869
 20
116.209056132
 30
0.0
 10
266.6641252352
 20
116.7375354864
 30
0.0
 10
267.0422617515
 20
117.3074949691
 30
0.0
 10
267.3845022659
 20
117.9081965762
 30
0.0
 10
267.705709685
 20
118.5289169827
 30
0.0
 10
268.0201183354
 20
119.1592582872
 30
0.0
 10
268.3428261656
 20
119.7881188444
 30
0.0
 10
268.7951721445
 20
120.6087957876
 30
0.0
 10
269.294715276
 20
121.3965245363
 30
0.0
 10
269.868367761
 20
122.1197321221
 30
0.0
 10
270.3378262032
 20
122.6177517542
 30
0.0
 10
270.8551067606
 20
123.0643500398
 30
0.0
 10
271.4200266473
 20
123.4534615281
 30
0.0
 10
272.0240923816
 20
123.789620935
 30
0.0
 10
272.8753185709
 20
124.1719476167
 30
0.0
 10
273.9960139355
 20
124.5286151846
 30
0.0
 10
275.3630477
 20
124.7874881391
 30
0.0
 10
276.2736896424
 20
124.9178128661
 30
0.0
 10
276.7184038806
 20
124.9895894989
 30
0.0
  0
SPLINE
  5
2EB
100
AcDbEntity
  8
0
100
AcDbSpline
 62
7
  6
CONTINUOUS
 70
0
 71
3
 72
32
 73
28
 74
0
 42
0.0000001
 43
0.0000001
 44
0.0000000001
 40
0.0
 40
0.0
 40
0.0
 40
0.0
 40
0.06198888
 40
0.1244248656
 40
0.1876395458
 40
0.2194334517
 40
0.2511182551
 40
0.2824854062
 40
0.3134354463
 40
0.3440182551
 40
0.3745029336
 40
0.4052429737
 40
0.4363887506
 40
0.4679199271
 40
0.4997155149
 40
0.5316173662
 40
0.5634606485
 40
0.6264006235
 40
0.65739771
 40
0.6881313997
 40
0.7187861767
 40
0.749600625
 40
0.7806991947
 40
0.8121133113
 40
0.8756279662
 40
0.9391026311
 40
1.0
 40
1.0
 40
1.0
 40
1.0
 10
217.0587370042
 20
167.2726540496
 30
0.0
 10
217.517257085
 20
167.277285152
 30
0.0
 10
218.4381463778
 20
167.3742916798
 30
0.0
 10
219.7828210871
 20
167.7342518616
 30
0.0
 10
220.8651663095
 20
168.1702711789
 30
0.0
 10
221.7099504404
 20
168.5764322771
 30
0.0
 10
222.3264300059
 20
168.9122764146
 30
0.0
 10
222.9132124902
 20
169.2866642999
 30
0.0
 10
223.4591249189
 20
169.7057859657
 30
0.0
 10
223.9523113328
 20
170.1773787087
 30
0.0
 10
224.3812253811
 20
170.705858063
 30
0.0
 10
224.7593618974
 20
171.2758175457
 30
0.0
 10
225.1016024118
 20
171.8765191529
 30
0.0
 10
225.4228098309
 20
172.4972395593
 30
0.0
 10
225.7372184813
 20
173.1275808638
 30
0.0
 10
226.0599263115
 20
173.756441421
 30
0.0
 10
226.5122722904
 20
174.5771183643
 30
0.0
 10
227.0118154219
 20
175.3648471129
 30
0.0
 10
227.5854679069
 20
176.0880546988
 30
0.0
 10
228.0549263491
 20
176.5860743308
 30
0.0
 10
228.5722069065
 20
177.0326726164
 30
0.0
 10
229.1371267932
 20
177.4217841047
 30
0.0
 10
229.7411925275
 20
177.7579435116
 30
0.0
 10
230.5924187168
 20
178.1402701933
 30
0.0
 10
231.7131140814
 20
178.4969377612
 30
0.0
 10
233.0801478459
 20
178.7558107157
 30
0.0
 10
233.9907897883
 20
178.8861354427
 30
0.0
 10
234.4355040265
 20
178.9579120755
 30
0.0
  0
SPLINE
  5
2EC
100
AcDbEntity
  8
0
100
AcDbSpline
 62
7
  6
CONTINUOUS
 70
0
 71
3
 72
31
 73
27
 74
0
 42
0.0000001
 43
0.0000001
 44
0.0000000001
 40
0.0
 40
0.0
 40
0.0
 40
0.0
 40
0.0624538442
 40
0.1245798404
 40
0.1559458208
 40
0.187499996
 40
0.2503782917
 40
0.3122161228
 40
0.3428140196
 40
0.3734643272
 40
0.4356069366
 40
0.467255651
 40
0.4992356263
 40
0.5314479067
 40
0.5636776838
 40
0.6269560285
 40
0.6576340961
 40
0.6877426534
 40
0.7027261458
 40
0.7177646281
 40
0.7482052288
 40
0.7793360631
 40
0.8111651733
 40
0.8760697322
 40
0.9402844797
 40
1.0
 40
1.0
 40
1.0
 40
1.0
 10
164.6705097406
 20
108.7213925266
 30
0.0
 10
164.6500896119
 20
109.1351820749
 30
0.0
 10
164.6822431433
 20
109.9656102951
 30
0.0
 10
164.8828989696
 20
110.9836825968
 30
0.0
 10
165.115850684
 20
111.7801600273
 30
0.0
 10
165.3951598136
 20
112.5669477892
 30
0.0
 10
165.835942996
 20
113.5090345142
 30
0.0
 10
166.4229525632
 20
114.3641854562
 30
0.0
 10
166.9878281181
 20
114.9557175106
 30
0.0
 10
167.6085106107
 20
115.4909214756
 30
0.0
 10
168.2977517293
 20
115.9507417271
 30
0.0
 10
169.0264831221
 20
116.3570497886
 30
0.0
 10
169.593809346
 20
116.6443737506
 30
0.0
 10
170.1726366438
 20
116.9167310135
 30
0.0
 10
170.9423546972
 20
117.2701405547
 30
0.0
 10
171.6946122584
 20
117.6415150557
 30
0.0
 10
172.3843173729
 20
118.0928483785
 30
0.0
 10
172.7713348878
 20
118.4162316911
 30
0.0
 10
173.0464094967
 20
118.7056604177
 30
0.0
 10
173.2983754281
 20
119.0182139738
 30
0.0
 10
173.5720227694
 20
119.4485415345
 30
0.0
 10
173.8372992163
 20
120.0098604326
 30
0.0
 10
174.119735991
 20
120.8108980448
 30
0.0
 10
174.3472698064
 20
121.8580046209
 30
0.0
 10
174.4783851716
 20
123.1051383053
 30
0.0
 10
174.5047794256
 20
123.927362206
 30
0.0
 10
174.5081700958
 20
124.3234758798
 30
0.0
  0
SPLINE
  5
2ED
100
AcDbEntity
  8
0
100
AcDbSpline
 62
7
  6
CONTINUOUS
 70
0
 71
3
 72
13
 73
9
 74
0
 42
0.0000001
 43
0.0000001
 44
0.0000000001
 40
0.0
 40
0.0
 40
0.0
 40
0.0
 40
0.1437020258
 40
0.3157793828
 40
0.5167881298
 40
0.6993629195
 40
0.8679909495
 40
1.0
 40
1.0
 40
1.0
 40
1.0
 10
51.5686234483
 20
73.7894191153
 30
0.0
 10
51.5309510213
 20
74.754811329
 30
0.0
 10
51.8822676791
 20
76.8026342821
 30
0.0
 10
53.429965334
 20
80.022268076
 30
0.0
 10
56.7161746214
 20
81.8198717202
 30
0.0
 10
60.3003693484
 20
83.2079465307
 30
0.0
 10
61.4317077396
 20
86.418669223
 30
0.0
 10
61.553812365
 20
88.5040317882
 30
0.0
 10
61.5686234483
 20
89.2894191153
 30
0.0
  0
SPLINE
  5
2EE
100
AcDbEntity
  8
0
100
AcDbSpline
 62
7
  6
CONTINUOUS
 70
0
 71
3
 72
13
 73
9
 74
0
 42
0.0000001
 43
0.0000001
 44
0.0000000001
 40
0.0
 40
0.0
 40
0.0
 40
0.0
 40
0.1984430127
 40
0.3406253924
 40
0.5146443631
 40
0.7080304506
 40
0.8758748785
 40
1.0
 40
1.0
 40
1.0
 40
1.0
 10
104.5686234483
 20
131.7894191153
 30
0.0
 10
106.0298489818
 20
131.7882980762
 30
0.0
 10
108.4875901678
 20
132.5392522534
 30
0.0
 10
111.8669257488
 20
134.5082437593
 30
0.0
 10
113.4501350076
 20
138.0118245174
 30
0.0
 10
115.5899920714
 20
141.4698258849
 30
0.0
 10
119.0077095114
 20
142.9068029273
 30
0.0
 10
121.2183755795
 20
143.161623108
 30
0.0
 10
122.0686234483
 20
143.2894191153
 30
0.0
  0
ENDSEC
  0
SECTION
  2
OBJECTS
  0
DICTIONARY
  5
C
100
AcDbDictionary
280
0
281
1
  3
ACAD_GROUP
350
D
  3
ACAD_MLINESTYLE
350
17
  3
ACAD_LAYOUT
350
1A
  3
ACAD_PLOTSETTINGS
350
19
  3
ACAD_PLOTSTYLENAME
350
E
  3
ACAD_TABLESTYLE
350
       2EF
  0
DICTIONARY
  5
D
102
{ACAD_REACTORS
330
C
102
}
100
AcDbDictionary
280
0
281
1
  0
ACDBDICTIONARYWDFLT
  5
E
102
{ACAD_REACTORS
330
C
102
}
100
AcDbDictionary
281
1
  3
Normal
350
F
100
AcDbDictionaryWithDefault
340
F
  0
DICTIONARY
  5
17
102
{ACAD_REACTORS
330
C
102
}
100
AcDbDictionary
280
0
281
1
  3
Standard
350
18
  0
DICTIONARY
  5
2EF
330
C
100
AcDbDictionary
281
1
  3
Standard
350
       2F2
  3
Standard1
350
       2F3
  0
DICTIONARY
  5
19
102
{ACAD_REACTORS
330
C
102
}
100
AcDbDictionary
281
1
  0
DICTIONARY
  5
1A
102
{ACAD_REACTORS
330
C
102
}
100
AcDbDictionary
281
1
  3
Model
350
2F0
  3
Layout1
350
2F1
  0
ACDBPLACEHOLDER
  5
F
102
{ACAD_REACTORS
330
E
102
}
  0
MLINESTYLE
  5
18
102
{ACAD_REACTORS
330
17
102
}
100
AcDbMlineStyle
  2
STANDARD
 70
0
  3

 62
256
 51
90.0
 52
90.0
 71
2
 49
0.5
 62
256
  6
BYLAYER
 49
-0.5
 62
256
  6
BYLAYER
  0
LAYOUT
  5
2F0
102
{ACAD_REACTORS
330
1A
102
}
100
AcDbPlotSettings
  1

  2
none_device
  4
ISO_A4_(297.00_x_210.00_MM)
  6

 40
0.0
 41
0.0
 42
0.0
 43
0.0
 44
297.0
 45
210.0
 46
0.0
 47
0.0
 48
0.0
 49
0.0
140
0.0
141
0.0
142
1.0
143
1.0
 70
1024
 72
1
 73
0
 74
0
  7

 75
0
147
1.0
148
0.0
149
0.0
100
AcDbLayout
  1
Model
 70
0
 71
0
 10
0.0
 20
0.0
 11
297.0
 21
210.0
 12
0.0
 22
0.0
 32
0.0
 14
0.0
 24
0.0
 34
0.0
 15
0.0
 25
0.0
 35
0.0
146
0.0
 13
0.0
 23
0.0
 33
0.0
 16
1.0
 26
0.0
 36
0.0
 17
0.0
 27
1.0
 37
0.0
 76
0
330
20A
345
0
346
0
  0
LAYOUT
  5
2F1
102
{ACAD_REACTORS
330
1A
102
}
100
AcDbPlotSettings
  1

  2
none_device
  4
ISO_A4_(297.00_x_210.00_MM)
  6

 40
0.0
 41
0.0
 42
0.0
 43
0.0
 44
297.0
 45
210.0
 46
0.0
 47
0.0
 48
0.0
 49
0.0
140
0.0
141
0.0
142
1.0
143
1.0
 70
0
 72
1
 73
0
 74
0
  7

 75
0
147
1.0
148
0.0
149
0.0
100
AcDbLayout
  1
Layout1
 70
0
 71
1
 10
0.0
 20
0.0
 11
297.0
 21
210.0
 12
0.0
 22
0.0
 32
0.0
 14
0.0
 24
0.0
 34
0.0
 15
0.0
 25
0.0
 35
0.0
146
0.0
 13
0.0
 23
0.0
 33
0.0
 16
1.0
 26
0.0
 36
0.0
 17
0.0
 27
1.0
 37
0.0
 76
0
330
20B
345
0
346
0
  0
TABLESTYLE
  5
2F2
102
{ACAD_REACTORS
330
2EF
330
294
102
}
330
2EF
100
AcDbTableStyle
  3
Standard
 70
0
 71
0
 40
0.06
 41
0.06
280
1
281
1
  7
Standard
140
0.18
170
1
 62
0
 63
7
283
0
  7
Standard
140
0.18
170
1
 62
0
 63
7
283
0
  7
Standard
140
0.18
170
1
 62
0
 63
7
283
0
  0
TABLESTYLE
  5
2F3
102
{ACAD_REACTORS
330
2EF
102
}
330
2EF
100
AcDbTableStyle
  3
Standard1
 70
1
 71
0
 40
0.06
 41
0.06
280
1
281
1
  7
Standard
140
0.18
170
1
 62
0
 63
7
283
0
  7
Standard
140
0.18
170
1
 62
0
 63
7
283
0
  7
Standard
140
0.18
170
1
 62
0
 63
7
283
0
  0
ENDSEC
  0
EOF
